<?xml version="1.0" standalone="no"?>
<!DOCTYPE svg PUBLIC "-//W3C//DTD SVG 1.1//EN" "http://www.w3.org/Graphics/SVG/1.1/DTD/svg11.dtd" >
<svg xmlns="http://www.w3.org/2000/svg">
<metadata>Generated by IcoMoon</metadata>
<defs>
<font id="icomoon" horiz-adv-x="1024">
<font-face units-per-em="1024" ascent="960" descent="-64" />
<missing-glyph horiz-adv-x="1024" />
<glyph unicode="&#x20;" horiz-adv-x="512" d="" />
<glyph unicode="&#xe900;" glyph-name="maris-360" d="M469.299 288.043c0 17.677 14.327 32 32 32h170.667c17.673 0 32-14.323 32-32v-170.667c0-17.673-14.327-32-32-32s-32 14.327-32 32v138.667h-138.667c-17.673 0-32 14.327-32 32zM576.311 820.838c90.522 22.634 180.685 12.693 240.226-46.894 69.303-69.217 71.556-179.343 33.045-285.291-6.037-16.61-24.397-25.178-41.007-19.14s-25.182 24.397-19.145 41.003c34.876 95.943 25.357 174.735-18.133 218.159-37.397 37.43-100.54 49.808-179.465 30.075-78.199-19.553-166.063-69.676-243.479-147.092s-127.539-165.278-147.098-243.486c-19.738-78.929-7.399-142.059 30.016-179.477zM231.272 188.693c36.672-36.651 97.971-49.246 174.751-31.177 76.154 17.924 162.016 65.207 238.688 138.918 12.74 12.25 32.998 11.849 45.248-0.892s11.849-32.998-0.892-45.244c-83.452-80.23-179.204-134.089-268.382-155.081-88.55-20.838-176.31-10.112-234.657 48.209-59.562 59.563-69.499 149.734-46.859 240.269 22.82 91.251 79.726 189.009 163.931 273.215s181.965 141.111 273.212 163.926z" />
<glyph unicode="&#xe901;" glyph-name="maris-area" d="M682.688 553.533h40.777c0 5.704 0.499 11.407 1.498 17.11 1.199 5.907 3.098 11.203 5.696 15.888 2.598 4.888 5.999 8.759 10.197 11.61 4.395 3.055 9.694 4.583 15.889 4.583 9.195 0 16.691-2.953 22.485-8.861 5.999-5.703 8.994-13.749 8.994-24.137 0-6.518-1.498-12.323-4.497-17.416-2.799-5.092-6.396-9.676-10.79-13.749-4.198-4.074-8.896-7.843-14.093-11.304-5.197-3.26-10.095-6.519-14.694-9.779-8.994-6.315-17.587-12.527-25.783-18.637-7.996-6.11-14.989-12.834-20.988-20.164-5.995-7.13-10.795-15.279-14.391-24.444-3.396-9.165-5.094-19.964-5.094-32.388h154.108v37.278h-99.243c5.197 7.33 11.196 13.747 17.988 19.247 6.797 5.5 13.794 10.594 20.988 15.279 7.198 4.885 14.293 9.775 21.291 14.665 7.194 4.89 13.589 10.287 19.187 16.192 5.598 6.11 10.095 13.037 13.491 20.778 3.401 7.74 5.099 17.008 5.099 27.804 0 10.388-2.001 19.758-5.999 28.11-3.797 8.351-8.994 15.379-15.59 21.082s-14.289 10.083-23.087 13.138c-8.593 3.055-17.69 4.583-27.281 4.583-12.595 0-23.787-2.24-33.583-6.722-9.591-4.278-17.587-10.388-23.983-18.333-6.396-7.74-11.196-16.906-14.391-27.498-3.2-10.388-4.599-21.693-4.198-33.915zM320 530.615v-210.615h56.767v122.214c0 10.321 1.466 18.603 4.398 24.849 2.931 6.519 6.396 11.409 10.394 14.669 4.264 3.529 8.529 5.837 12.793 6.925 4.53 1.357 8.128 2.035 10.793 2.035 9.062 0 15.857-1.63 20.389-4.885 4.796-2.991 8.128-7.061 9.993-12.224 2.133-5.158 3.332-10.863 3.601-17.109 0.265-5.973 0.397-12.087 0.397-18.334v-118.14h56.768v117.325c0 6.519 0.401 12.902 1.199 19.149 1.067 6.519 2.931 12.22 5.598 17.109 2.931 5.163 6.797 9.233 11.593 12.224 5.065 3.255 11.593 4.885 19.588 4.885s14.259-1.357 18.79-4.070c4.796-2.718 8.393-6.383 10.79-10.999 2.402-4.621 3.866-10.052 4.399-16.299s0.798-12.898 0.798-19.959v-119.364h56.768v140.954c0 13.581-1.865 25.122-5.598 34.628-3.729 9.779-8.926 17.655-15.59 23.629-6.66 5.973-14.656 10.321-23.983 13.035-9.331 2.717-19.456 4.076-30.383 4.076-14.391 0-26.918-3.529-37.581-10.591-10.394-7.061-18.654-15.211-24.785-24.444-5.594 13.035-13.858 22.135-24.785 27.294-10.658 5.161-22.519 7.741-35.58 7.741-13.591 0-25.717-2.988-36.377-8.961-10.394-5.978-19.322-14.396-26.784-25.259h-0.8v28.514h-53.568zM98.807 883.088c0 18.913 15.332 34.246 34.246 34.246h757.896c49.916 0 90.385-40.467 90.385-90.386v-757.896c0-18.914-15.334-34.244-34.244-34.244-18.914 0-34.249 15.33-34.249 34.244v757.896c0 12.092-9.801 21.895-21.892 21.895h-757.896c-18.913 0-34.246 15.332-34.246 34.246zM161.123 735.027l108.426-108.426c13.373-13.374 13.373-35.057 0-48.431s-35.057-13.374-48.431 0l-25.749 25.749v-450.657c0-12.092 9.803-21.897 21.894-21.897h450.658l-25.749 25.754c-13.376 13.372-13.376 35.055 0 48.427 13.372 13.376 35.055 13.376 48.431 0l108.425-108.425-108.425-108.425c-13.376-13.376-35.059-13.376-48.431 0-13.376 13.372-13.376 35.055 0 48.431l25.749 25.749h-450.658c-49.919 0-90.386 40.465-90.386 90.385v450.657l-25.749-25.749c-13.374-13.374-35.057-13.374-48.431 0s-13.374 35.057 0 48.431l108.426 108.426z" />
<glyph unicode="&#xe902;" glyph-name="maris-arrow-down" d="M844.395 393.929c12.19 12.796 11.695 33.054-1.101 45.244s-33.054 11.695-45.244-1.101l-254.059-266.722v628.651c0 17.673-14.323 32-32 32-17.673 0-32-14.327-32-32v-628.668l-254.071 266.739c-12.189 12.796-32.445 13.291-45.242 1.101s-13.289-32.448-1.1-45.244l301.513-316.54c6.869-7.215 15.633-11.477 24.747-12.796 1.993-0.388 4.049-0.593 6.153-0.593 2.121 0 4.194 0.205 6.199 0.602 9.092 1.327 17.835 5.589 24.691 12.787l301.513 316.54z" />
<glyph unicode="&#xe903;" glyph-name="maris-arrow-left" d="M457.929 115.597c12.796-12.19 33.054-11.699 45.244 1.101 12.19 12.796 11.695 33.050-1.101 45.239l-266.728 254.063h628.656c17.673 0 32 14.327 32 32s-14.327 32-32 32h-628.66l266.732 254.069c12.796 12.189 13.286 32.445 1.101 45.241-12.19 12.797-32.448 13.289-45.244 1.1l-316.54-301.511c-7.208-6.865-11.472-15.625-12.794-24.73-0.39-1.997-0.594-4.058-0.594-6.17s0.205-4.181 0.596-6.182c1.324-9.097 5.588-17.847 12.792-24.708l316.54-301.513z" />
<glyph unicode="&#xe904;" glyph-name="maris-arrow-right" d="M566.071 780.4c-12.796 12.189-33.054 11.697-45.244-1.1s-11.695-33.052 1.101-45.242l266.726-254.063h-628.655c-17.673 0-32-14.327-32-32s14.327-32 32-32h628.659l-266.731-254.067c-12.796-12.19-13.291-32.444-1.101-45.244 12.19-12.796 32.448-13.286 45.244-1.101l316.54 301.513c7.206 6.865 11.473 15.625 12.796 24.725 0.388 1.997 0.593 4.062 0.593 6.174s-0.205 4.181-0.597 6.182c-1.323 9.097-5.589 17.847-12.791 24.708l-316.54 301.513z" />
<glyph unicode="&#xe905;" glyph-name="maris-arrow-up" d="M179.6 502.071c-12.189-12.796-11.697-33.054 1.1-45.244s33.052-11.695 45.242 1.101l254.058 266.722v-628.651c0-17.673 14.327-32 32-32s32 14.327 32 32v628.666l254.071-266.737c12.19-12.796 32.444-13.291 45.244-1.101 12.796 12.19 13.286 32.448 1.101 45.244l-301.513 316.54c-6.874 7.213-15.637 11.478-24.747 12.797-1.993 0.388-4.049 0.591-6.157 0.591-2.121 0-4.194-0.206-6.199-0.6-9.088-1.328-17.83-5.591-24.687-12.788l-301.513-316.54z" />
<glyph unicode="&#xe906;" glyph-name="maris-balcony" d="M518.686 784.017c-38.793-34.080-112.801-96.553-173.565-132.716-56.925-33.879-138.287-66.138-192.682-86.026l32.816-33.909h668.224l24.777 32.001c-52.821 19.716-135.595 53.118-192.666 88.233-58.688 36.107-129.476 98.199-166.903 132.418zM490.167 863.431c16.832 15.345 42.423 14.81 58.658-0.616 17.425-16.561 109.116-102.366 177.749-144.595 71.991-44.291 195.511-87.936 223.172-97.418 29.154-9.995 37.239-44.767 19.994-67.041l-64.977-83.929c-8.149-10.526-20.71-16.687-34.018-16.687h-310.963v-124.574h104.29c21.602 0 39.113-17.51 39.113-39.108 0-21.602-17.51-39.113-39.113-39.113h-104.29v-182.515h46.353c21.598 0 39.108-17.51 39.108-39.108 0-21.602-17.51-39.113-39.108-39.113h-182.516c-21.6 0-39.11 17.51-39.11 39.113 0 21.598 17.51 39.108 39.11 39.108h57.943v182.515h-110.090c-21.6 0-39.11 17.51-39.11 39.113 0 21.598 17.51 39.108 39.11 39.108h110.090v124.574h-311.226c-11.654 0-22.81 4.727-30.915 13.103l-81.396 84.11c-21.218 21.926-13.917 60.353 17.245 70.748 29.643 9.887 155.652 53.256 229.848 97.413 71.194 42.371 167.1 128.547 185.050 144.913zM67.030 377.835c20.008 8.141 42.825-1.481 50.964-21.487l59.614-146.556h118.179c20.762 0 38.563-14.827 42.313-35.247l25.485-138.752c3.902-21.244-10.157-41.63-31.401-45.534-21.245-3.9-41.63 10.159-45.532 31.403l-20.188 109.909h-83.865l-25.011-111.411c-4.731-21.073-25.652-34.325-46.727-29.594s-34.325 25.651-29.594 46.729l29.184 130.001-64.913 159.578c-8.139 20.006 1.483 42.825 21.491 50.961zM956.928 377.835c20.011-8.137 29.632-30.955 21.491-50.961l-64.444-158.426 36.851-128.977c5.935-20.77-6.093-42.415-26.863-48.35-20.766-5.935-42.415 6.093-48.35 26.863l-32.452 113.587h-70.481l-28.702-112.512c-5.338-20.928-26.633-33.566-47.565-28.228-20.928 5.338-33.566 26.633-28.228 47.565l35.46 139.012c4.864 19.051 22.025 32.384 41.69 32.384h101.013l59.614 146.556c8.141 20.006 30.959 29.628 50.965 21.487z" />
<glyph unicode="&#xe907;" glyph-name="maris-bath" d="M163.434 455.241v-49.92c0-76.855 49.391-142.839 118.743-167.497l29.312-10.423h401.061l29.312 10.423c69.355 24.657 118.746 90.641 118.746 167.497v49.92h-697.174zM896.021 533.321c11.315 0 22.17-4.493 30.17-12.497 8-8 12.497-18.854 12.497-30.17v-85.333c0-111.189-71.424-205.781-170.667-241.067v-110.933c0-17.673-14.327-32-32-32h-21.333c-17.673 0-32 14.327-32 32v96h-341.334v-96c0-17.673-14.327-32-32-32h-21.333c-17.673 0-32 14.327-32 32v110.933c-99.243 35.285-170.667 129.877-170.667 241.067v85.333c0 11.315 4.495 22.17 12.497 30.17 8.002 8.004 18.854 12.497 30.17 12.497h85.333v120.407c0 89.131 64.981 168.789 153.685 177.408 23.721 2.352 47.673-0.287 70.311-7.749 22.643-7.461 43.469-19.579 61.146-35.574 17.673-15.995 31.804-35.513 41.481-57.298 5.329-11.995 9.246-24.531 11.691-37.355 3.311-17.371-11.324-31.838-29.009-31.838h-21.346c-17.655 0-31.433 14.783-37.905 31.211-0.631 1.603-1.31 3.188-2.039 4.755-5.248 11.265-12.885 21.251-22.387 29.261s-20.635 13.852-32.625 17.118c-11.99 3.266-24.548 3.878-36.799 1.794-41.941-6.912-70.869-46.421-70.869-88.96v-123.18h597.334z" />
<glyph unicode="&#xe908;" glyph-name="maris-bed" d="M543.309 590.080c0.452 1.63 0.691 3.347 0.691 5.12v12.8c0 6.625 2.014 12.78 5.461 17.886 1.655 2.451 3.639 4.66 5.892 6.564 5.572 4.71 12.779 7.549 20.646 7.549h96c17.673 0 32-14.327 32-32v-12.8c0-1.773 0.239-3.49 0.691-5.12 2.24-8.118 9.677-14.080 18.509-14.080h89.6c8.107 0 15.036 5.022 17.856 12.125 0.866 2.189 1.344 4.576 1.344 7.075v108.8c0 70.692-57.306 128-128 128h-384c-70.692 0-128-57.308-128-128v-108.8c0-2.499 0.477-4.886 1.346-7.075 2.817-7.102 9.749-12.125 17.854-12.125h89.6c8.831 0 16.269 5.962 18.51 14.080 0.45 1.63 0.69 3.347 0.69 5.12v12.8c0 17.673 14.327 32 32 32h96c7.868 0 15.074-2.839 20.646-7.549 2.253-1.904 4.237-4.113 5.892-6.564 3.447-5.106 5.461-11.261 5.461-17.886v-12.8c0-1.773 0.239-3.49 0.691-5.12 2.24-8.118 9.677-14.080 18.509-14.080h25.6c8.832 0 16.269 5.962 18.509 14.080zM224 512h576c4.309 0 8.576-0.171 12.8-0.503 12.267-0.973 24.141-3.328 35.473-6.908 64.772-20.471 111.727-81.045 111.727-152.589v-256c0-17.673-14.327-32-32-32s-32 14.327-32 32v96c0 15.159-5.269 29.090-14.080 40.055-11.729 14.601-29.734 23.945-49.92 23.945h-640c-20.186 0-38.19-9.344-49.92-23.945-8.809-10.965-14.080-24.896-14.080-40.055v-96c0-17.673-14.327-32-32-32s-32 14.327-32 32v256c0 71.543 46.955 132.117 111.729 152.589 11.331 3.584 23.206 5.935 35.471 6.908 4.223 0.333 8.492 0.503 12.8 0.503zM881.92 325.065v26.935c0 45.244-36.676 81.92-81.92 81.92h-576c-45.243 0-81.92-36.676-81.92-81.92v-26.935c15.531 5.828 32.353 9.015 49.92 9.015h640c17.566 0 34.389-3.187 49.92-9.015zM512 697.574c-18.035 12.908-40.128 20.506-64 20.506h-96c-32.532 0-61.768-14.112-81.92-36.548v22.468c0 27.57 22.35 49.92 49.92 49.92h384c27.571 0 49.92-22.35 49.92-49.92v-22.468c-20.151 22.436-49.387 36.548-81.92 36.548h-96c-23.872 0-45.965-7.598-64-20.506z" />
<glyph unicode="&#xe909;" glyph-name="maris-cancel" d="M179.614 772.817l3.549 4.020c15.381 15.38 39.583 16.564 56.32 3.549l4.020-3.549 268.497-268.463 268.497 268.463c16.661 16.662 43.678 16.662 60.339 0s16.661-43.677 0-60.34l-268.463-268.497 268.463-268.497c15.381-15.381 16.563-39.582 3.55-56.32l-3.55-4.019c-15.381-15.381-39.582-16.563-56.32-3.55l-4.019 3.55-268.497 268.463-268.497-268.463c-16.663-16.661-43.677-16.661-60.34 0s-16.662 43.678 0 60.339l268.463 268.497-268.463 268.497c-15.38 15.381-16.564 39.583-3.549 56.32v0z" />
<glyph unicode="&#xe90a;" glyph-name="maris-chat-help" d="M512 810.667c-200.295 0-362.667-162.371-362.667-362.667 0-62.703 15.905-123.025 45.783-176.533l6.428-11.507-47.476-169.993 170.095 47.454 11.5-6.413c53.46-29.807 113.711-45.675 176.337-45.675 200.294 0 362.667 162.372 362.667 362.667s-162.372 362.667-362.667 362.667zM554.667 256c0 23.565-19.102 42.667-42.667 42.667s-42.667-19.102-42.667-42.667c0-23.565 19.102-42.667 42.667-42.667s42.667 19.102 42.667 42.667zM629.333 554.667c0 64.801-52.531 117.333-117.333 117.333s-117.333-52.532-117.333-117.333c0-17.673 14.327-32 32-32s32 14.327 32 32l0.277 5.453c2.731 26.894 25.442 47.88 53.056 47.88 29.457 0 53.333-23.878 53.333-53.333 0-24.905-6.758-36.173-33.293-62.707l-7.194-7.326c-32.154-33.476-44.847-57.506-44.847-100.634 0-17.673 14.327-32 32-32s32 14.327 32 32c0 24.905 6.758 36.173 33.293 62.707l7.194 7.326c32.154 33.476 44.847 57.506 44.847 100.634zM512 874.667c235.639 0 426.667-191.025 426.667-426.667 0-235.639-191.027-426.667-426.667-426.667-69.047 0-135.773 16.444-195.718 47.445l-163.235-45.538c-28.37-7.923-57.79 8.653-65.712 37.022-2.622 9.387-2.621 19.315 0.002 28.693l45.553 163.11c-31.072 59.998-47.557 126.801-47.557 195.934 0 235.642 191.025 426.667 426.667 426.667zM512 810.667c-200.295 0-362.667-162.371-362.667-362.667 0-62.703 15.905-123.025 45.783-176.533l6.428-11.507-47.476-169.993 170.095 47.454 11.5-6.413c53.46-29.807 113.711-45.675 176.337-45.675 200.294 0 362.667 162.372 362.667 362.667s-162.372 362.667-362.667 362.667z" />
<glyph unicode="&#xe90b;" glyph-name="maris-check" d="M362.667 252.339l-161.83 161.83c-16.663 16.661-43.677 16.661-60.34 0s-16.662-43.678 0-60.339l192-192c16.663-16.661 43.677-16.661 60.34 0l469.333 469.333c16.661 16.663 16.661 43.677 0 60.34s-43.678 16.662-60.339 0l-439.164-439.164z" />
<glyph unicode="&#xe90c;" glyph-name="maris-chevron-down" d="M183.163 606.17c16.663 16.662 43.677 16.662 60.34 0l268.497-268.497 268.497 268.497c16.661 16.662 43.678 16.662 60.339 0s16.661-43.677 0-60.34l-298.667-298.666c-16.661-16.661-43.678-16.661-60.339 0l-298.667 298.666c-16.662 16.663-16.662 43.677 0 60.34z" />
<glyph unicode="&#xe90d;" glyph-name="maris-chevron-left" d="M670.17 776.837c16.661-16.663 16.661-43.677 0-60.34l-268.497-268.497 268.497-268.497c16.661-16.661 16.661-43.678 0-60.339s-43.678-16.661-60.339 0l-298.667 298.667c-16.662 16.661-16.662 43.678 0 60.339l298.667 298.667c16.661 16.662 43.678 16.662 60.339 0z" />
<glyph unicode="&#xe90e;" glyph-name="maris-chevron-right" d="M353.83 776.837c-16.662-16.663-16.662-43.677 0-60.34l268.497-268.497-268.497-268.497c-16.662-16.661-16.662-43.678 0-60.339s43.677-16.661 60.34 0l298.666 298.667c16.661 16.661 16.661 43.678 0 60.339l-298.666 298.667c-16.663 16.662-43.677 16.662-60.34 0z" />
<glyph unicode="&#xe90f;" glyph-name="maris-chevron-up" d="M183.163 289.83c16.663-16.661 43.677-16.661 60.34 0l268.497 268.497 268.497-268.497c16.661-16.661 43.678-16.661 60.339 0s16.661 43.678 0 60.339l-298.667 298.667c-16.661 16.662-43.678 16.662-60.339 0l-298.667-298.667c-16.662-16.661-16.662-43.678 0-60.339z" />
<glyph unicode="&#xe910;" glyph-name="maris-download" d="M778.658 85.338c17.673 0.004 32.009-14.319 32.009-31.991s-14.319-32.004-31.991-32.009l-554.666-0.162c-17.673-0.004-32.009 14.319-32.009 31.991s14.318 32.004 31.991 32.009l554.668 0.162zM496.99 874.166l4.343 0.292c16.201 0 29.589-12.039 31.71-27.658l0.29-4.342-0.043-583.894 158.797 158.733c11.362 11.362 29.141 12.395 41.668 3.098l3.588-3.102c11.358-11.362 12.39-29.137 3.093-41.664l-3.098-3.588-213.235-213.188c-11.354-11.354-29.12-12.39-41.647-3.11l-3.588 3.098-213.481 213.188c-12.505 12.489-12.519 32.747-0.031 45.252 11.353 11.371 29.13 12.416 41.664 3.127l3.591-3.093 158.679-158.451 0.043 583.596c0 16.2 12.041 29.589 27.657 31.708v0z" />
<glyph unicode="&#xe911;" glyph-name="maris-facebook" d="M725.79 389.333l26.074 169.876h-163.004v110.239c0 46.475 22.771 91.776 95.774 91.776h74.103v144.632c0 0-67.247 11.476-131.541 11.476-134.238 0-221.981-81.363-221.981-228.653v-129.47h-149.215v-169.876h149.215v-410.667h183.645v410.667h136.93z" />
<glyph unicode="&#xe912;" glyph-name="maris-filter" d="M384 288c0 17.673 14.327 32 32 32h192c17.673 0 32-14.327 32-32s-14.327-32-32-32h-192c-17.673 0-32 14.327-32 32zM256 480c0 17.673 14.327 32 32 32h448c17.673 0 32-14.327 32-32s-14.327-32-32-32h-448c-17.673 0-32 14.327-32 32zM128 672c0 17.673 14.327 32 32 32h704c17.673 0 32-14.327 32-32s-14.327-32-32-32h-704c-17.673 0-32 14.327-32 32z" />
<glyph unicode="&#xe913;" glyph-name="maris-garage" d="M502.541 926.063c14.835 12.292 36.416 11.924 50.825-0.866l432.55-384c16.128-14.315 17.591-38.989 3.277-55.113-14.31-16.124-38.989-17.591-55.113-3.277l-407.509 361.768-437.663-362.634c-16.602-13.756-41.213-11.452-54.97 5.154-13.756 16.602-11.449 41.212 5.153 54.968l463.45 384zM526.771 640h-185.438c-11.782 0-21.333-9.551-21.333-21.333v-469.333c0-11.78 9.551-21.333 21.333-21.333h75.487c11.783 0 21.332 9.553 21.332 21.333v140.8c0 4.715 3.823 8.533 8.533 8.533h80.085c97.771 0 177.229 76.514 177.229 170.667 0 94.151-79.458 170.667-177.229 170.667zM532.676 412.446h-90.257c-2.355 0-4.267 1.907-4.267 4.267v105.242c0 2.359 1.911 4.267 4.267 4.267h90.257c32.495 0 59.076-25.6 59.076-56.887s-26.581-56.887-59.076-56.887z" />
<glyph unicode="&#xe914;" glyph-name="maris-google" d="M954.658 532.57c5.517-31.386 8.107-63.462 8.107-95.364 0-142.788-51.046-263.501-139.857-345.242h0.175c-77.777-71.735-184.521-113.297-311.1-113.297-177.448 0-339.721 100.019-419.392 258.5-66.565 132.612-66.565 288.849 0 421.463 79.671 158.652 241.945 258.672 419.392 258.672 116.578 1.38 229.184-42.422 314.031-122.093l-133.995-133.992c-48.457 46.216-113.126 71.393-180.036 70.359-122.437 0-226.423-82.603-263.5-193.832-19.659-58.289-19.659-121.402 0-179.689h0.173c37.248-111.057 141.062-193.66 263.502-193.66 63.287 0 117.606 16.209 159.684 44.834h-0.171c49.493 32.768 83.294 84.326 93.811 142.618h-253.5v180.723h442.675z" />
<glyph unicode="&#xe915;" glyph-name="maris-grid-off" d="M373.333 405.333c53.019 0 96-42.982 96-96v-149.333c0-53.018-42.981-96-96-96h-149.333c-53.019 0-96 42.982-96 96v149.333c0 53.018 42.981 96 96 96h149.333zM800 405.333c53.018 0 96-42.982 96-96v-149.333c0-53.018-42.982-96-96-96h-149.333c-53.018 0-96 42.982-96 96v149.333c0 53.018 42.982 96 96 96h149.333zM373.333 341.333h-149.333c-17.673 0-32-14.327-32-32v-149.333c0-17.673 14.327-32 32-32h149.333c17.673 0 32 14.327 32 32v149.333c0 17.673-14.327 32-32 32zM800 341.333h-149.333c-17.673 0-32-14.327-32-32v-149.333c0-17.673 14.327-32 32-32h149.333c17.673 0 32 14.327 32 32v149.333c0 17.673-14.327 32-32 32zM373.333 832c53.019 0 96-42.981 96-96v-149.333c0-53.019-42.981-96-96-96h-149.333c-53.019 0-96 42.981-96 96v149.333c0 53.019 42.981 96 96 96h149.333zM800 832c53.018 0 96-42.981 96-96v-149.333c0-53.019-42.982-96-96-96h-149.333c-53.018 0-96 42.981-96 96v149.333c0 53.019 42.982 96 96 96h149.333zM373.333 768h-149.333c-17.673 0-32-14.327-32-32v-149.333c0-17.673 14.327-32 32-32h149.333c17.673 0 32 14.327 32 32v149.333c0 17.673-14.327 32-32 32zM800 768h-149.333c-17.673 0-32-14.327-32-32v-149.333c0-17.673 14.327-32 32-32h149.333c17.673 0 32 14.327 32 32v149.333c0 17.673-14.327 32-32 32z" />
<glyph unicode="&#xe916;" glyph-name="maris-grid-on" d="M373.333 405.333c53.019 0 96-42.982 96-96v-149.333c0-53.018-42.981-96-96-96h-149.333c-53.019 0-96 42.982-96 96v149.333c0 53.018 42.981 96 96 96h149.333zM800 405.333c53.018 0 96-42.982 96-96v-149.333c0-53.018-42.982-96-96-96h-149.333c-53.018 0-96 42.982-96 96v149.333c0 53.018 42.982 96 96 96h149.333zM373.333 832c53.019 0 96-42.981 96-96v-149.333c0-53.019-42.981-96-96-96h-149.333c-53.019 0-96 42.981-96 96v149.333c0 53.019 42.981 96 96 96h149.333zM800 832c53.018 0 96-42.981 96-96v-149.333c0-53.019-42.982-96-96-96h-149.333c-53.018 0-96 42.981-96 96v149.333c0 53.019 42.982 96 96 96h149.333z" />
<glyph unicode="&#xe917;" glyph-name="maris-heart-off" d="M546.974 721.937l-35.017-35.093-35.127 35.125c-89.56 89.56-234.766 89.56-324.326 0s-89.56-234.767 0-324.328l336.87-336.866c12.497-12.497 32.755-12.497 45.252 0l337.131 336.93c89.361 89.856 89.515 234.656-0.064 324.232-89.724 89.723-234.995 89.723-324.719 0zM826.377 442.833l-314.377-314.176-314.242 314.24c-64.567 64.567-64.567 169.25 0 233.817s169.25 64.567 233.815 0l57.92-57.918c12.706-12.709 33.387-12.461 45.79 0.548l56.943 57.338c64.73 64.73 169.485 64.73 234.214 0 64.58-64.582 64.469-168.953-0.064-233.849z" />
<glyph unicode="&#xe918;" glyph-name="maris-heart-on" d="M546.974 721.937l-35.017-35.093-35.127 35.125c-89.56 89.56-234.766 89.56-324.326 0s-89.56-234.767 0-324.328l336.87-336.866c12.497-12.497 32.755-12.497 45.252 0l337.131 336.93c89.361 89.856 89.515 234.656-0.064 324.232-89.724 89.723-234.995 89.723-324.719 0z" />
<glyph unicode="&#xe919;" glyph-name="maris-instagram" d="M512.047 960c-139.051 0-156.502-0.608-211.115-3.093-54.508-2.496-91.713-11.125-124.268-23.787-33.675-13.077-62.241-30.571-90.7-59.041-28.48-28.459-45.974-57.024-59.094-90.689-12.694-32.566-21.334-69.782-23.787-124.268-2.443-54.614-3.083-72.076-3.083-211.127 0-139.055 0.619-156.449 3.093-211.065 2.507-54.505 11.136-91.713 23.787-124.267 13.088-33.676 30.581-62.241 59.051-90.698 28.448-28.481 57.014-46.019 90.667-59.094 32.577-12.66 69.793-21.29 124.289-23.789 54.614-2.486 72.054-3.091 211.098-3.091 139.059 0 156.458 0.605 211.074 3.091 54.505 2.499 91.755 11.129 124.328 23.789 33.666 13.075 62.189 30.613 90.638 59.094 28.481 28.458 45.973 57.023 59.094 90.689 12.586 32.563 21.225 69.781 23.785 124.267 2.453 54.612 3.095 72.020 3.095 211.074 0 139.051-0.642 156.502-3.095 211.116-2.56 54.507-11.199 91.713-23.785 124.268-13.121 33.675-30.613 62.241-59.094 90.699-28.481 28.48-56.962 45.974-90.666 59.041-32.642 12.661-69.869 21.291-124.379 23.787-54.612 2.485-71.997 3.093-211.093 3.093h0.158zM466.115 867.732c13.633 0.021 28.844 0 45.931 0 136.709 0 152.911-0.491 206.895-2.944 49.92-2.283 77.014-10.624 95.060-17.632 23.896-9.28 40.932-20.373 58.838-38.294 17.925-17.92 29.016-34.987 38.316-58.88 7.010-18.027 15.36-45.12 17.631-95.041 2.453-53.974 2.988-70.188 2.988-206.829 0-136.639-0.535-152.855-2.988-206.829-2.281-49.92-10.622-77.014-17.631-95.041-9.281-23.892-20.392-40.904-38.316-58.815-17.92-17.92-34.932-29.016-58.838-38.293-18.022-7.042-45.14-15.36-95.060-17.645-53.974-2.453-70.186-2.984-206.895-2.984-136.715 0-152.918 0.531-206.891 2.984-49.92 2.304-77.014 10.645-95.073 17.655-23.893 9.281-40.96 20.373-58.88 38.293s-29.014 34.946-38.315 58.847c-7.008 18.027-15.36 45.121-17.632 95.041-2.453 53.974-2.944 70.191-2.944 206.918 0 136.725 0.491 152.853 2.944 206.827 2.283 49.921 10.624 77.015 17.632 95.063 9.28 23.894 20.395 40.96 38.315 58.88s34.987 29.014 58.88 38.315c18.048 7.040 45.153 15.36 95.073 17.653 47.232 2.134 65.536 2.774 160.96 2.88v-0.128zM785.352 782.718c-33.922 0-61.44-27.488-61.44-61.419 0-33.92 27.518-61.441 61.44-61.441s61.44 27.52 61.44 61.441c0 33.92-27.518 61.44-61.44 61.44v-0.021zM512.047 710.931c-145.206 0-262.935-117.729-262.935-262.935 0-145.208 117.729-262.884 262.935-262.884 145.208 0 262.893 117.676 262.893 262.884 0 145.206-117.695 262.935-262.903 262.935h0.009zM512.047 618.663c94.255 0 170.668-76.406 170.668-170.668 0-94.255-76.414-170.668-170.668-170.668-94.261 0-170.667 76.414-170.667 170.668 0 94.262 76.406 170.668 170.667 170.668v0z" />
<glyph unicode="&#xe91a;" glyph-name="maris-linked-in" d="M391.334 590.255h174.31v-86.827c25.109 49.937 89.502 94.805 186.231 94.805 185.434 0 229.457-99.405 229.457-281.788v-337.779h-187.733v296.243c0 103.863-25.109 162.436-89.033 162.436-88.657 0-125.5-63.125-125.5-162.389v-296.29h-187.733v611.588zM69.419-13.355h187.733v611.588h-187.733v-611.588zM284.045 797.653c0.007-15.735-3.114-31.316-9.181-45.835s-14.959-27.687-26.16-38.739c-22.697-22.557-53.419-35.184-85.419-35.106-31.943 0.021-62.595 12.616-85.325 35.059-11.16 11.090-20.023 24.273-26.079 38.793s-9.188 30.094-9.215 45.827c0 31.774 12.672 62.187 35.341 84.621 22.71 22.474 53.374 35.073 85.325 35.059 32.009 0 62.703-12.625 85.372-35.059 22.622-22.434 35.341-52.847 35.341-84.621z" />
<glyph unicode="&#xe91b;" glyph-name="maris-list-1" d="M117.333 192.004h533.333c17.673 0 32-14.327 32-32 0-16.201-12.041-29.589-27.657-31.71l-4.343-0.29h-533.333c-17.673 0-32 14.327-32 32 0 16.201 12.038 29.589 27.658 31.706l4.342 0.294zM117.333 469.338h789.333c17.673 0 32-14.327 32-32 0-16.201-12.041-29.589-27.657-31.71l-4.343-0.29h-789.333c-17.673 0-32 14.327-32 32 0 16.201 12.038 29.589 27.658 31.706l4.342 0.294zM117.333 746.531h661.333c17.673 0 32-14.327 32-32 0-16.201-12.041-29.589-27.657-31.708l-4.343-0.292h-661.333c-17.673 0-32 14.327-32 32 0 16.2 12.038 29.589 27.658 31.708l4.342 0.292z" />
<glyph unicode="&#xe91c;" glyph-name="maris-list" d="M128 234.667h512c23.565 0 42.667-19.102 42.667-42.667 0-21.879-16.469-39.915-37.692-42.381l-4.975-0.286h-512c-23.564 0-42.667 19.102-42.667 42.667 0 21.879 16.471 39.915 37.691 42.381l4.976 0.286zM128 490.667h768c23.565 0 42.667-19.102 42.667-42.667 0-21.879-16.469-39.915-37.692-42.381l-4.975-0.286h-768c-23.564 0-42.667 19.102-42.667 42.667 0 21.879 16.471 39.915 37.691 42.381l4.976 0.286zM128 746.667h640c23.565 0 42.667-19.103 42.667-42.667 0-21.881-16.469-39.915-37.692-42.38l-4.975-0.287h-640c-23.564 0-42.667 19.103-42.667 42.667 0 21.881 16.471 39.915 37.691 42.38l4.976 0.287z" />
<glyph unicode="&#xe91d;" glyph-name="maris-location-outline" d="M249.292 765.083c145.084 145.084 380.314 145.084 525.398 0s145.084-380.311 0-525.394l-50.645-50.086c-37.329-36.638-85.76-83.738-145.318-141.321-37.214-35.985-96.256-35.981-133.466 0.009l-148.955 144.892c-18.72 18.381-34.391 33.882-47.013 46.507-145.084 145.084-145.084 380.31 0 525.394zM729.434 719.828c-120.090 120.090-314.796 120.090-434.886 0s-120.091-314.798 0-434.887l63.448-62.609c34.94-34.197 78.864-76.881 131.758-128.038 12.403-11.994 32.081-11.998 44.489-0.004l144.849 140.864c20.006 19.639 36.791 36.237 50.342 49.788 120.090 120.090 120.090 314.796 0 434.887zM511.991 618.708c70.729 0 128.064-57.337 128.064-128.067 0-70.729-57.335-128.064-128.064-128.064s-128.067 57.335-128.067 128.064c0 70.73 57.338 128.067 128.067 128.067zM511.991 554.708c-35.383 0-64.068-28.684-64.068-64.067s28.685-64.064 64.068-64.064c35.383 0 64.064 28.681 64.064 64.064s-28.681 64.067-64.064 64.067z" />
<glyph unicode="&#xe91e;" glyph-name="maris-mail" d="M132.312 581.903v-338.733c0-75.405 61.128-136.533 136.533-136.533h546.135c75.405 0 136.533 61.129 136.533 136.533v409.599c0 75.405-61.129 136.533-136.533 136.533h-546.135c-75.405 0-136.533-61.128-136.533-136.533v-70.865c0-0.002 0 0.002 0 0zM268.846 721.036h546.135c37.7 0 68.267-30.564 68.267-68.267v-50.508l-341.329-183.79-341.339 183.797v50.501c0 37.702 30.564 68.267 68.267 68.267zM200.579 524.732l325.155-175.083c10.103-5.44 22.263-5.44 32.367 0l325.146 175.078v-281.557c0-37.705-30.566-68.267-68.267-68.267h-546.135c-37.702 0-68.267 30.562-68.267 68.267v281.562z" />
<glyph unicode="&#xe91f;" glyph-name="maris-map" d="M392.677 789.384l2.007 0.054 1.952-0.052c0.957-0.055 1.917-0.154 2.875-0.3l0.686-0.162c3.644-0.585 7.266-1.887 10.717-3.932l2.213-1.431 216.334-152.118 216.192 151.975c19.959 14.028 46.997 1.42 50.108-21.721l0.299-4.458v-453.653c0-8.934-3.729-17.382-10.163-23.39l-3.435-2.79-234.667-164.966c-11.388-8.004-25.084-7.334-35.319-0.986l-217.808 153.225-216.306-152.094c-19.956-14.029-46.996-1.421-50.108 21.717l-0.296 4.459v453.656c0 8.931 3.727 17.382 10.16 23.389l3.437 2.79 234.667 164.966c2.731 1.92 5.594 3.34 8.511 4.304l5.225 1.195 2.719 0.324zM832.060 695.628l-170.667-119.975v-375.423l170.667 119.974v375.424zM362.625 695.771l-170.667-119.975v-375.425l170.667 119.979v375.421zM426.726 695.771v-375.421l170.667-119.979v375.425l-170.667 119.975z" />
<glyph unicode="&#xe920;" glyph-name="maris-menu" d="M128 234.667h768c23.565 0 42.667-19.102 42.667-42.667 0-21.879-16.469-39.915-37.692-42.381l-4.975-0.286h-768c-23.564 0-42.667 19.102-42.667 42.667 0 21.879 16.471 39.915 37.691 42.381l4.976 0.286zM127.995 490.667l768.001 0.094c23.565 0 42.671-19.098 42.671-42.662 0-21.879-16.465-39.919-37.687-42.385l-4.975-0.286-767.999-0.094c-23.564-0.004-42.672 19.098-42.672 42.662 0 21.879 16.467 39.915 37.686 42.385l4.976 0.286zM128 746.667h768c23.565 0 42.667-19.103 42.667-42.667 0-21.881-16.469-39.915-37.692-42.38l-4.975-0.287h-768c-23.564 0-42.667 19.103-42.667 42.667 0 21.881 16.471 39.915 37.691 42.38l4.976 0.287z" />
<glyph unicode="&#xe921;" glyph-name="maris-mobile" d="M704 896c35.345 0 64-28.654 64-64v-768c0-35.345-28.655-64-64-64h-384c-35.346 0-64 28.655-64 64v768c0 35.346 28.654 64 64 64h384zM320 960c-70.692 0-128-57.308-128-128v-768c0-70.694 57.308-128 128-128h384c70.694 0 128 57.306 128 128v768c0 70.692-57.306 128-128 128h-384zM512 64c35.345 0 64 28.655 64 64s-28.655 64-64 64c-35.345 0-64-28.655-64-64s28.655-64 64-64z" />
<glyph unicode="&#xe922;" glyph-name="maris-orientation" d="M596.608 482.718l55.821 99.81c2.103 3.762-2.065 7.916-5.82 5.8l-98.982-55.775-30.622 109.917c-1.156 4.162-7.061 4.162-8.218 0l-30.622-109.917-100.089 55.952c-3.744 2.093-7.889-2.028-5.818-5.784l55.134-100.003-109.918-30.622c-4.162-1.161-4.162-7.061 0-8.222l109.918-30.618-55.869-99.938c-2.1-3.759 2.051-7.906 5.807-5.807l99.897 55.868 30.622-109.918c1.156-4.164 7.061-4.164 8.218 0l30.622 109.918 99.81-55.821c3.763-2.103 7.919 2.065 5.803 5.82l-55.778 98.982 110.11 30.673c4.147 1.156 4.169 7.027 0.030 8.213l-110.054 31.471zM547.627 440.862c0-0.896-0.896-1.792-0.896-2.645s-0.896-2.645-0.896-3.413c-0.896-0.896-0.896-1.792-1.792-3.413-0.896-0.896-0.896-1.792-1.792-2.645-0.922-1.634-2.069-3.127-3.413-4.437l-0.896-0.896c-1.792-1.792-3.413-2.645-5.376-4.437-0.896-0.896-1.792-0.896-2.645-1.792s-2.091-1.493-3.371-1.749c-0.887-0.585-1.967-0.896-3.029-0.896h-0.469c-0.896 0-2.645-0.896-3.413-0.896-1.792 0-3.413-0.896-5.376-0.896h-3.413l-0.896-0.043c-1.557-0.004-3.098 0.316-4.523 0.939l0.085-0.043c-0.896 0-2.645 0.896-3.413 0.896s-2.645 0.896-3.413 0.896c-0.896 0.896-2.645 0.896-3.413 1.792s-1.792 0.896-2.645 1.792c-1.988 1.203-3.785 2.701-5.333 4.437l-0.896 0.896c-1.792 1.792-2.645 3.413-4.437 5.376-0.896 0.896-0.896 1.792-1.792 2.645s-0.896 2.645-1.792 3.413c-0.585 0.887-0.896 1.924-0.896 2.987v0.469c0 0.896-0.896 1.792-0.896 2.645-1.216 4.745-1.203 9.724 0.043 14.464l-0.043-0.213c0 0.896 0.896 1.792 0.896 2.645 0 1.792 0.896 2.645 1.792 4.437 0 0.896 0.896 1.792 0.896 2.645 0.896 0.896 0.896 2.645 1.792 3.413 1.067 0.947 1.963 2.074 2.645 3.328l0.043 0.085c1.792 1.792 2.645 3.413 4.437 4.437 0.896 0.896 1.792 1.792 2.645 1.792 1.792 0.896 2.645 1.792 4.437 2.645 0.896 0 0.896 0.896 1.792 0.896 1.792 0.896 3.413 0.896 5.376 1.792h1.792c4.745 1.216 9.724 1.199 14.464-0.043l-0.213 0.043c0.896 0 1.792-0.896 2.645-0.896 1.792 0 2.645-0.896 4.437-1.792 0.896-0.896 1.792-0.896 3.413-1.792 0.896-0.896 1.792-0.896 2.645-1.792 3.793-2.628 7.087-5.905 9.728-9.685l0.085-0.128c0.896-0.896 0.896-1.792 1.792-2.645s1.493-2.091 1.749-3.371c0.555-0.853 0.896-1.92 0.896-3.029v-0.469c0-0.896 0.896-1.792 0.896-3.413 0.597-1.792 0.939-3.84 0.939-5.931l-0.043-1.237 0.043-1.451c0.009-2.010-0.337-4.002-1.024-5.888l0.043 0.171zM495.172 711.482c0 13.355 0 25.856-0.896 36.523 4.437-9.813 9.813-20.48 14.251-29.397l17.835-32.043h19.584v83.712h-17.835v-24.917c-0.354-11.98 0.286-23.968 1.92-35.84l-0.128 1.109c-4.062 10.269-8.764 20.272-14.080 29.952l0.725-1.451-17.835 31.147h-22.272v-83.712h17.835v24.917h0.896zM259.927 455.194c-1.792-9.813-3.413-19.584-4.437-29.397-0.896 9.813-2.645 18.688-4.437 28.501l-7.296 35.584h-20.48l-6.827-34.731c-1.792-10.667-4.437-20.48-5.376-29.397-1.792 8.917-3.413 19.584-5.376 29.397l-6.357 34.731h-20.48l19.584-83.712h20.48l8.021 36.523c1.959 8.166 3.412 16.448 4.352 24.789l0.085 1.024c0.896-9.813 2.645-17.835 3.413-25.856l7.125-36.523h20.48l21.376 83.712h-17.067l-6.784-34.645zM812.902 441.856h30.293v15.104h-30.293v17.835h32.043v15.147h-51.627v-83.712h53.419v15.104h-33.835v20.523zM519.181 170.142c-10.667 4.437-16.043 6.229-16.043 11.563 0 4.437 3.413 8.021 12.459 8.021 6.443-0.256 12.544-1.493 18.261-3.541l-0.427 0.128 4.437 15.104c-6.771 2.705-13.961 4.207-21.248 4.437h-0.128c-19.584 0-32.043-10.667-32.043-24.917 0-12.459 8.917-19.584 23.125-24.917 9.813-3.413 14.251-6.229 14.251-11.563s-4.437-8.917-13.355-8.917c-7.573 0.154-15.010 2.022-21.76 5.461l0.299-0.128-3.413-16.043c6.827-3.371 14.848-5.376 23.296-5.376h0.597c23.125 0 33.792 11.563 33.792 25.856 0.299 11.435-6.955 19.456-22.101 24.832zM512 960c-282.752 0-512-229.248-512-512s229.248-512 512-512c282.752 0 512 229.248 512 512-0.384 282.624-229.419 511.616-512 512zM941.184 400.811c-22.784-200.235-179.413-357.803-377.259-381.781l-2.091-0.213-46.182 80c-1.643 2.846-5.747 2.846-7.39 0l-46.182-79.957c-199.253 24.32-355.456 180.821-379.136 378.112l-0.213 2.048 77.36 45.265c2.829 1.655 2.812 5.751-0.030 7.381l-77.33 44.42c23.851 199.339 180.096 355.883 377.216 379.989l2.091 0.213 46.182-80.001c1.643-2.844 5.747-2.845 7.39 0l46.182 79.959c199.893-24.192 356.523-181.717 379.136-379.947l0.171-2.005-74.628-43.465c-2.842-1.655-2.825-5.764 0.030-7.394l74.684-42.624z" />
<glyph unicode="&#xe923;" glyph-name="maris-parking" d="M526.933 704h-185.6c-11.782 0-21.333-9.551-21.333-21.333v0-469.333c0-11.782 9.551-21.333 21.333-21.333v0h75.52c11.782 0 21.333 9.551 21.333 21.333v0 140.8c0 4.713 3.821 8.533 8.533 8.533v0h80.213c0.898-0.017 1.958-0.026 3.020-0.026 94.951 0 172.146 76.019 174.044 170.516l0.003 0.177c-1.901 94.674-79.096 170.693-174.047 170.693-1.062 0-2.121-0.010-3.178-0.028l0.159 0.002zM532.48 476.587h-90.027l-4.267 4.267v104.96l4.267 4.267h90.027c31.34 0 56.747-25.406 56.747-56.747s-25.406-56.747-56.747-56.747v0zM512 933.973v-26.027c0.119 0 0.259 0 0.4 0 254.257 0 460.373-206.116 460.373-460.373s-206.116-460.373-460.373-460.373c-254.257 0-460.373 206.116-460.373 460.373 0 127.135 51.535 242.234 134.854 325.546v0c82.986 83.29 197.792 134.827 324.635 134.827 0.171 0 0.341 0 0.512 0h-0.027v52.053c-282.77 0-512-229.23-512-512v0 0c0-282.77 229.23-512 512-512v0 0c282.77 0 512 229.23 512 512s-229.23 512-512 512v0z" />
<glyph unicode="&#xe924;" glyph-name="maris-people" d="M629.333 320c41.237 0 74.667-33.429 74.667-74.667l-0.047-41.050c4.979-93.402-64.469-140.668-189.103-140.668-124.115 0-194.85 46.498-194.85 139.051v42.667c0 41.237 33.429 74.667 74.667 74.667h234.667zM629.333 256h-234.667c-5.891 0-10.667-4.774-10.667-10.667v-42.667c0-50.185 37.831-75.051 130.85-75.051 92.497 0 127.817 24.043 125.15 74.965v42.752c0 5.892-4.774 10.667-10.667 10.667zM160 533.333l186.709-0.004c-3.509-13.636-5.376-27.93-5.376-42.662 0-7.215 0.448-14.327 1.317-21.303l-182.65-0.030c-5.891 0-10.667-4.774-10.667-10.667v-42.667c0-50.185 37.831-75.051 130.85-75.051 19.708 0 36.82 1.088 51.522 3.298-24.114-15.275-42.192-39.138-50.053-67.264l-1.469-0.034c-124.114 0-194.85 46.498-194.85 139.051v42.667c0 41.237 33.429 74.667 74.667 74.667zM864 533.333c41.237 0 74.667-33.429 74.667-74.667l-0.047-41.050c4.979-93.402-64.469-140.668-189.103-140.668l-7.181 0.073c-8.081 28.89-26.944 53.274-51.977 68.544 16.499-3.093 36.139-4.617 59.157-4.617 92.497 0 127.817 24.043 125.15 74.965v42.752c0 5.892-4.774 10.667-10.667 10.667l-182.647 0.034c0.866 6.976 1.314 14.084 1.314 21.299 0 14.733-1.865 29.026-5.376 42.662l186.709 0.004zM512 618.667c70.694 0 128-57.308 128-128 0-70.694-57.306-128-128-128s-128 57.306-128 128c0 70.692 57.306 128 128 128zM512 554.667c-35.345 0-64-28.655-64-64s28.655-64 64-64c35.345 0 64 28.655 64 64s-28.655 64-64 64zM277.333 832c70.692 0 128-57.308 128-128s-57.308-128-128-128c-70.692 0-128 57.308-128 128s57.308 128 128 128zM746.667 832c70.694 0 128-57.308 128-128s-57.306-128-128-128c-70.694 0-128 57.308-128 128s57.306 128 128 128zM277.333 768c-35.346 0-64-28.654-64-64s28.654-64 64-64c35.346 0 64 28.654 64 64s-28.654 64-64 64zM746.667 768c-35.345 0-64-28.654-64-64s28.655-64 64-64c35.345 0 64 28.654 64 64s-28.655 64-64 64z" />
<glyph unicode="&#xe925;" glyph-name="maris-person" d="M757.508 362.671c52.992 0 95.949-42.961 95.949-95.953v-24.55c0-38.157-13.636-75.055-38.447-104.043-66.961-78.229-168.811-116.838-303.014-116.838-134.225 0-236.028 38.622-302.857 116.881-24.736 28.966-38.327 65.809-38.327 103.902v24.649c0 52.992 42.959 95.953 95.952 95.953h490.744zM757.508 298.671h-490.744c-17.647 0-31.952-14.306-31.952-31.953v-24.649c0-22.857 8.154-44.958 22.996-62.34 53.474-62.622 137.352-94.443 254.187-94.443 116.834 0 200.785 31.821 254.396 94.455 14.886 17.391 23.066 39.531 23.066 62.426v24.55c0 17.647-14.306 31.953-31.949 31.953zM511.996 874.469c117.82 0 213.333-95.512 213.333-213.333s-95.514-213.332-213.333-213.332c-117.822 0-213.334 95.511-213.334 213.332s95.512 213.333 213.334 213.333zM511.996 810.469c-82.475 0-149.334-66.859-149.334-149.333s66.86-149.332 149.334-149.332c82.475 0 149.333 66.857 149.333 149.332s-66.859 149.333-149.333 149.333z" />
<glyph unicode="&#xe926;" glyph-name="maris-phone" d="M237.69 623.547c-12.196 80.402 44.547 152.797 131.299 179.328 31.948 9.771 65.985-6.999 77.706-38.284l27.81-74.239c9.156-24.434 2.56-51.979-16.67-69.617l-82.72-75.876c-8.283-7.598-11.962-19.040-9.708-30.052l0.735-3.341c0.457-1.997 1.13-4.821 2.037-8.354 1.813-7.057 4.573-16.981 8.438-28.8 7.689-23.505 19.948-55.121 38.188-86.711 18.241-31.595 39.489-58.018 56.005-76.429 8.299-9.259 15.514-16.61 20.719-21.709 2.607-2.551 4.715-4.548 6.217-5.939l2.569-2.347c8.41-7.458 20.117-9.954 30.839-6.579l107.068 33.698c24.892 7.834 52.045-0.226 68.625-20.369l50.654-61.534c21.086-25.609 18.607-63.202-5.658-85.824-66.372-61.884-157.636-74.56-221.163-23.518-61.239 49.212-133.313 122.338-193.522 225.839-60.349 103.744-87.672 202.895-99.468 280.657zM432.444 510.601l68.655 62.971c38.455 35.275 51.648 90.365 33.34 139.233l-27.81 74.239c-23.586 62.951-92.073 96.693-156.357 77.033-107.689-32.934-194.155-129.501-175.857-250.128 12.779-84.242 42.335-191.348 107.423-303.237 64.824-111.437 142.521-190.327 208.757-243.546 95.194-76.493 222.345-50.372 304.892 26.594 48.998 45.679 54.003 121.596 11.426 173.312l-50.654 61.53c-33.169 40.29-87.471 56.41-137.25 40.742l-88.862-27.968c-3.418 3.511-7.377 7.71-11.695 12.527-14.601 16.277-32.862 39.091-48.222 65.698-15.36 26.603-25.984 53.824-32.785 74.607-2.010 6.148-3.665 11.678-5.001 16.393z" />
<glyph unicode="&#xe927;" glyph-name="maris-photo" d="M594.121 853.208c34.039 0 65.536-18.025 82.773-47.376l34.756-59.161h88.35c76.582 0 138.667-62.083 138.667-138.667v-405.334c0-76.582-62.084-138.667-138.667-138.667h-576c-76.584 0-138.667 62.084-138.667 138.667v405.334c0 76.583 62.083 138.667 138.667 138.667h88.765l37.315 60.77c17.461 28.437 48.438 45.766 81.809 45.766h162.231zM594.121 789.208h-162.231c-9.535 0-18.483-4.244-24.511-11.426l-2.76-3.83-46.682-76.026c-5.821-9.479-16.146-15.255-27.27-15.255h-106.667c-41.237 0-74.667-33.429-74.667-74.667v-405.334c0-41.237 33.429-74.667 74.667-74.667h576c41.237 0 74.667 33.429 74.667 74.667v405.334c0 41.237-33.429 74.667-74.667 74.667h-106.667c-11.345 0-21.845 6.008-27.593 15.792l-44.028 74.953c-5.747 9.783-16.247 15.792-27.593 15.792zM512 618.672c106.039 0 192-85.961 192-192.001s-85.961-192-192-192c-106.039 0-192 85.961-192 192s85.961 192.001 192 192.001zM512 554.672c-70.694 0-128-57.306-128-128.001 0-70.69 57.306-128 128-128s128 57.31 128 128c0 70.694-57.306 128.001-128 128.001z" />
<glyph unicode="&#xe928;" glyph-name="maris-plan" d="M572.919 684.876v132.902h-56.892v-132.902h-43.337c-15.71 0-28.446-12.735-28.446-28.444s12.736-28.445 28.446-28.445h157.235c15.71 0 28.446 12.735 28.446 28.445s-12.736 28.444-28.446 28.444h-57.007zM85.333 789.333c0 47.128 38.205 85.333 85.333 85.333h83.258c15.709 0 28.445-12.735 28.445-28.445s-12.735-28.444-28.445-28.444h-83.258c-15.709 0-28.445-12.735-28.445-28.445v-324.749h192.641v49.502c0 15.71 12.735 28.446 28.444 28.446s28.445-12.736 28.445-28.446v-155.9c0-15.71-12.735-28.442-28.445-28.442s-28.444 12.732-28.444 28.442v49.506h-192.641v-301.026c0-15.71 12.735-28.446 28.445-28.446h83.258c15.709 0 28.445-12.732 28.445-28.442s-12.735-28.446-28.445-28.446h-83.258c-47.128 0-85.333 38.204-85.333 85.333v682.667zM379.3 846.222c0 15.709 12.735 28.445 28.445 28.445h445.589c47.13 0 85.333-38.205 85.333-85.333v-360.7c0-47.13-38.204-85.333-85.333-85.333h-61.039c-15.71 0-28.446 12.736-28.446 28.446s12.736 28.442 28.446 28.442h61.039c15.71 0 28.446 12.736 28.446 28.446v360.7c0 15.709-12.736 28.445-28.446 28.445h-445.589c-15.709 0-28.445 12.735-28.445 28.444zM554.726 542.532c15.71 0 28.446-12.736 28.446-28.446v-113.899h91.191c15.71 0 28.446-12.732 28.446-28.442s-12.736-28.446-28.446-28.446h-91.191v-236.634c0-47.13-38.204-85.333-85.333-85.333h-103.767c-15.709 0-28.444 12.736-28.444 28.446s12.735 28.442 28.444 28.442h103.767c15.71 0 28.446 12.736 28.446 28.446v407.42c0 15.71 12.732 28.446 28.442 28.446z" />
<glyph unicode="&#xe929;" glyph-name="maris-play" d="M324.628 763.088c-21.323 11.602-47.294-3.833-47.294-28.108v-573.964c0-24.277 25.971-39.71 47.294-28.109l527.426 286.98c22.276 12.122 22.276 44.1 0 56.218l-527.426 286.983zM213.333 734.979c0 72.826 77.913 119.132 141.883 84.325l527.429-286.982c66.82-36.361 66.82-132.292 0-168.649l-527.429-286.985c-63.97-34.807-141.883 11.499-141.883 84.326v573.964z" />
<glyph unicode="&#xe92a;" glyph-name="maris-pool" d="M508.992 40.538l0.004-0.009 0.768 0.538c59.721 33.609 113.161 63.501 203.934 63.501 69.026 0 135.283-32.256 192.499-72.311 16.32-11.426 38.997-8.704 51.285 7.151 12.233 15.795 9.476 38.682-6.929 50.304-63.339 44.851-145.408 87.39-236.855 87.39-110.208 0-177.626-37.965-238.707-72.363l-0.247-0.137-0.004 0.009-0.768-0.538c-59.722-33.609-113.162-63.505-203.936-63.505-61.589 0-112.436 25.681-150.58 59.418-14.817 13.103-37.491 14.831-52.544 1.502-14.977-13.257-16.615-36.489-1.722-50.27 48.98-45.321 118.154-83.183 204.846-83.183 110.21 0 177.628 37.965 238.709 72.363l0.247 0.141zM206.963 705.565c0 91.122 60.837 165.121 144.264 180.911 19.283 3.65 35.687 19.277 35.687 39.386 0 19.94-16.317 36.697-36.473 33.981-125.51-16.91-216.012-125.473-216.012-254.278v-530.636c0-20.032 16.237-36.267 36.267-36.267s36.267 16.235 36.267 36.267v168.533h405.334v-32c0-20.032 16.235-36.267 36.267-36.267 20.028 0 36.267 16.235 36.267 36.267v400.315c0 89.556 61.952 160.171 147.337 174.959 19.371 3.355 35.755 19.020 35.755 39.125 0 19.945-16.307 36.672-36.463 34.094-124.518-15.927-219.162-117.69-219.162-248.178v-22.716h-405.334v16.503zM612.297 616.529v-200.533h-405.334v200.533h405.334z" />
<glyph unicode="&#xe92b;" glyph-name="maris-search-map" d="M668.83 661.333c133.743 0 242.163-108.42 242.163-242.163 0-55.215-18.483-106.116-49.596-146.854l153.148-153.195c12.608-12.612 12.608-33.054 0-45.666-11.639-11.639-29.956-12.531-42.624-2.684l-3.042 2.684-153.195 153.148c-40.738-31.113-91.639-49.596-146.854-49.596-133.743 0-242.163 108.42-242.163 242.163s108.42 242.163 242.163 242.163zM668.83 596.757c-7.778 0-15.441-0.5-22.959-1.47-87.232-11.259-154.628-85.817-154.628-176.116 0-89.604 66.364-163.708 152.619-175.842 8.158-1.148 16.495-1.741 24.969-1.741 1.062 0 2.125 0.009 3.183 0.026 96.61 1.698 174.4 80.546 174.4 177.557 0 96.337-76.706 174.754-172.373 177.512-1.728 0.050-3.469 0.075-5.21 0.075zM353.487 872.483c3.166 1.469 6.62 2.213 10.109 2.178 3.348-0.029 6.641-0.775 9.678-2.187l287.355-133.478 287.351 133.488c3.58 1.661 7.514 2.394 11.447 2.131 3.938-0.263 7.74-1.513 11.063-3.634s6.059-5.047 7.957-8.505c1.894-3.458 2.884-7.338 2.884-11.281v-659.779c0-4.476-1.276-8.858-3.682-12.629s-5.841-6.775-9.899-8.661l-297.242-138.078c-3.098-1.438-6.473-2.185-9.89-2.185s-6.797 0.747-9.894 2.185l-287.355 133.478-287.354-133.487c-3.576-1.66-7.514-2.394-11.448-2.129-3.934 0.26-7.739 1.51-11.063 3.631-3.324 2.125-6.059 5.047-7.954 8.508-1.894 3.456-2.887 7.339-2.886 11.281v659.778c-0.001 4.474 1.277 8.855 3.683 12.627s5.841 6.777 9.899 8.662l297.238 138.087zM345.631 209.024l3.473 609.664-259.504-120.562v-608.010l256.031 118.908zM646.434 693.818l-269.17 125.059-3.464-606.443 269.174-125.039 0.887 155.934c8.158-1.148 16.495-1.741 24.969-1.741 1.062 0 2.125 0.009 3.183 0.026l-0.9-157.542 263.287 122.308v608.039l-259.806-120.684-0.555-97.051c-1.728 0.050-3.469 0.075-5.21 0.075-7.778 0-15.441-0.5-22.959-1.47l0.563 98.531z" />
<glyph unicode="&#xe92c;" glyph-name="maris-search" d="M426.667 853.333c176.73 0 320-143.269 320-320 0-72.964-24.422-140.228-65.536-194.061l202.372-202.436c16.661-16.661 16.661-43.678 0-60.339-15.381-15.381-39.582-16.563-56.32-3.55l-4.019 3.55-202.436 202.372c-53.833-41.114-121.097-65.536-194.061-65.536-176.731 0-320 143.27-320 320s143.269 320 320 320zM426.667 768c-129.603 0-234.667-105.064-234.667-234.667s105.064-234.667 234.667-234.667c129.604 0 234.667 105.062 234.667 234.667 0 129.603-105.062 234.667-234.667 234.667z" />
<glyph unicode="&#xe92d;" glyph-name="maris-share" d="M725.333 853.406c82.517 0 149.41-66.893 149.41-149.409s-66.893-149.409-149.41-149.409c-43.947 0-83.46 18.973-110.797 49.173l-194.502-111.124c4.408-14.097 6.782-29.090 6.782-44.642 0-15.548-2.374-30.545-6.782-44.642l194.464-111.164c27.337 30.225 66.867 49.216 110.835 49.216 82.517 0 149.41-66.893 149.41-149.41 0-82.513-66.893-149.406-149.41-149.406s-149.41 66.893-149.41 149.406c0 15.552 2.377 30.545 6.784 44.642l-194.461 111.168c-27.34-30.225-66.871-49.216-110.837-49.216-82.516 0-149.409 66.893-149.409 149.406 0 82.517 66.893 149.411 149.409 149.411 43.945 0 83.459-18.973 110.798-49.173l194.501 111.122c-4.407 14.097-6.784 29.092-6.784 44.642 0 82.516 66.893 149.409 149.41 149.409zM725.333 277.406c-47.168 0-85.41-38.238-85.41-85.41 0-47.168 38.242-85.406 85.41-85.406s85.41 38.238 85.41 85.406c0 47.172-38.242 85.41-85.41 85.41zM277.409 533.406c-47.17 0-85.409-38.238-85.409-85.411 0-47.168 38.239-85.406 85.409-85.406s85.409 38.238 85.409 85.406c0 47.172-38.239 85.411-85.409 85.411zM725.333 789.406c-47.168 0-85.41-38.239-85.41-85.409s38.242-85.409 85.41-85.409c47.168 0 85.41 38.239 85.41 85.409s-38.242 85.409-85.41 85.409z" />
<glyph unicode="&#xe92e;" glyph-name="maris-sort-asc" d="M224 160c0-17.673-14.327-32-32-32s-32 14.327-32 32v562.745l-73.373-73.373c-12.497-12.497-32.758-12.497-45.255 0s-12.497 32.758 0 45.255l128.422 128.414c2.969 2.863 6.354 5.040 9.957 6.531 3.773 1.565 7.91 2.428 12.249 2.428s8.476-0.864 12.249-2.428c3.774-1.562 7.31-3.876 10.378-6.944l128-128c12.497-12.497 12.497-32.758 0-45.255s-32.758-12.497-45.255 0l-73.373 73.373v-562.745zM448 736c0 17.673 14.327 32 32 32h448c17.673 0 32-14.327 32-32s-14.327-32-32-32h-448c-17.673 0-32 14.327-32 32zM480 576c-17.673 0-32-14.327-32-32s14.327-32 32-32h320c17.673 0 32 14.327 32 32s-14.327 32-32 32h-320zM480 384c-17.673 0-32-14.327-32-32s14.327-32 32-32h192c17.673 0 32 14.327 32 32s-14.327 32-32 32h-192zM480 192c-17.673 0-32-14.327-32-32s14.327-32 32-32h64c17.673 0 32 14.327 32 32s-14.327 32-32 32h-64z" />
<glyph unicode="&#xe92f;" glyph-name="maris-sort-desc" d="M224 800c0 17.673-14.327 32-32 32s-32-14.327-32-32v-562.743l-73.373 73.37c-12.497 12.497-32.758 12.497-45.255 0s-12.497-32.755 0-45.252l128.422-128.414c2.969-2.863 6.354-5.043 9.957-6.532 3.773-1.566 7.91-2.428 12.249-2.428s8.476 0.862 12.249 2.428c3.774 1.562 7.31 3.878 10.378 6.946l128 128c12.497 12.497 12.497 32.755 0 45.252s-32.758 12.497-45.255 0l-73.373-73.37v562.743zM448 736c0 17.673 14.327 32 32 32h448c17.673 0 32-14.327 32-32s-14.327-32-32-32h-448c-17.673 0-32 14.327-32 32zM480 576c-17.673 0-32-14.327-32-32s14.327-32 32-32h320c17.673 0 32 14.327 32 32s-14.327 32-32 32h-320zM480 384c-17.673 0-32-14.327-32-32s14.327-32 32-32h192c17.673 0 32 14.327 32 32s-14.327 32-32 32h-192zM480 192c-17.673 0-32-14.327-32-32s14.327-32 32-32h64c17.673 0 32 14.327 32 32s-14.327 32-32 32h-64z" />
<glyph unicode="&#xe930;" glyph-name="maris-twitter" d="M337.526 69.333c354.207 0 548.025 293.508 548.025 547.604 0 8.257 0 16.515-0.375 24.772 37.564 27.023 70.242 61.178 96.158 99.837-34.556-15.388-71.744-25.522-110.805-30.401 39.812 23.645 70.238 61.553 84.89 106.593-37.188-22.144-78.507-37.908-122.453-46.54-35.307 37.533-85.265 60.803-140.48 60.803-106.3 0-192.691-86.325-192.691-192.543 0-15.013 1.877-29.651 4.881-43.913-160.012 7.882-301.995 84.824-397.026 201.176-16.527-28.525-25.917-61.554-25.917-96.835 0-66.808 34.181-125.735 85.641-160.265-31.552 1.126-61.225 9.759-87.143 24.021 0-0.751 0-1.501 0-2.627 0-93.079 66.484-171.151 154.379-188.789-16.151-4.506-33.054-6.758-50.708-6.758-12.395 0-24.415 1.126-36.059 3.379 24.415-76.565 95.782-132.113 179.92-133.615-66.109-51.797-149.12-82.573-239.268-82.573-15.4 0-30.801 0.751-45.825 2.628 84.89-54.050 186.306-85.952 294.86-85.952z" />
<glyph unicode="&#xe931;" glyph-name="maris-viber" d="M481.088 917.333c-71.057 0-246.823-7.479-340.315-97.232-67.315-63.575-93.493-160.808-97.233-276.739-7.479-183.247 33.658-299.177 100.972-359.013 14.959-11.217 52.356-41.135 123.41-63.573v-93.495c0 0 0-37.397 22.438-44.873 3.74 0 7.479-3.742 11.219-3.742 22.438 0 41.137 26.176 67.315 52.356 22.438 26.176 41.137 44.877 52.356 63.573h82.272c71.057 0 246.822 7.479 340.314 97.233 67.315 67.315 93.495 164.548 93.495 287.957 3.738 18.701 3.738 41.139 3.738 63.576-3.738 138.369-44.877 231.862-100.971 284.218-22.438 18.699-119.671 89.753-329.097 89.753h-29.914zM473.609 846.279h33.655c198.204 0 272.998-63.575 280.478-71.055 44.877-37.397 71.053-119.671 74.795-228.122v-14.959c3.738-22.438 3.738-41.135 3.738-52.356-3.738-112.192-26.176-186.982-71.053-235.601-78.532-71.053-243.081-74.795-287.957-74.795h-71.053l-59.837-67.315-37.397-41.135-7.479-11.221c-7.479-7.479-18.699-22.438-26.178-26.176v168.286c-74.794 18.701-104.712 44.877-112.191 52.356-52.356 44.877-82.274 153.327-74.794 299.177v37.397c7.479 89.753 29.918 149.588 67.315 190.725 78.534 71.055 243.083 74.794 287.959 74.794v0zM469.867 764.005c-18.697 0-18.697-26.178 0-26.178 138.368 0 258.039-93.493 258.039-269.258 0-18.701 26.18-18.701 26.18 0 0 190.724-127.151 299.175-284.22 295.436v0zM321.662 729.413c-8.474 1.015-17.008-1.32-23.785-6.507-37.397-18.699-74.832-56.171-63.613-97.307 0 0 7.479-33.62 48.616-104.673 22.438-33.66 41.137-63.578 59.835-86.016 18.699-26.176 48.617-56.094 78.534-78.532 59.837-48.619 153.329-97.233 194.464-108.45 37.397-11.221 78.537 26.176 97.233 63.573 7.479 14.959 3.742 33.655-11.217 44.877-22.438 22.438-59.836 48.614-86.016 63.573-18.697 11.221-41.135 3.742-48.614-7.479l-18.701-22.438c-7.479-11.217-26.176-11.217-26.176-11.217-123.411 33.655-157.068 160.807-157.068 160.807s0 14.959 11.219 26.178l22.438 18.698c11.219 7.479 18.698 29.918 7.479 48.617-7.479 11.219-18.698 33.657-29.917 44.876-11.219 14.959-33.658 41.137-33.658 41.137-5.674 5.681-13.085 9.302-21.054 10.284v0zM496.047 689.211c-18.701 3.74-22.438-26.178-3.742-26.178 104.713-7.479 164.548-78.534 160.806-168.288-3.738-18.697 26.18-18.697 26.18 0 3.738 104.713-63.578 190.726-183.245 194.466v0zM507.264 618.157c-18.697 3.74-18.697-26.178 0-26.178 44.877 0 67.315-26.178 67.315-71.053 3.738-18.701 29.918-18.701 29.918 0-3.742 59.834-37.397 97.231-97.233 97.231z" />
<glyph unicode="&#xe932;" glyph-name="maris-video-security" d="M223.998 792.962c-55.022 0-99.627-44.605-99.627-99.627v-277.335c0-55.019 44.605-99.627 99.627-99.627h362.668c55.019 0 99.627 44.608 99.627 99.627v277.335c0 55.022-44.608 99.627-99.627 99.627h-362.668zM46.292 693.335c0 98.144 79.562 177.707 177.707 177.707h362.668c71.996 0 133.995-42.816 161.916-104.376l121.532 72.919c21.948 13.168 49.28 13.513 71.552 0.903s36.041-36.225 36.041-61.819v-448.002c0-25.591-13.769-49.207-36.041-61.815-22.272-12.612-49.604-12.267-71.552 0.9l-121.532 72.917c-27.921-61.555-89.92-104.375-161.916-104.375h-38.865l-2.074-10.914c-26.522-139.563-149.094-245.086-296.396-245.086h-82.933c-42.769 0-77.44 34.671-77.44 77.44v68.267c0 39.236 31.806 71.040 71.040 71.040h85.333c27.172 0 50.678 16.051 61.417 39.253h-82.75c-98.144 0-177.707 79.565-177.707 177.707v277.335zM454.831 195.627h-82.266c-24.911-44.527-72.517-74.667-127.233-74.667h-78.293v-60.587h82.293c92.094 0 171.24 55.701 205.499 135.253zM899.627 766.234l-92.587-55.552v-312.026l92.587-55.552v423.13zM910.276 336.713l0.013-0.009c-0.004 0.004-0.009 0.004-0.013 0.009z" />
<glyph unicode="&#xe933;" glyph-name="maris-video" d="M405.333 714.667c0-88.366-71.634-160-160-160s-160 71.634-160 160c0 88.366 71.634 160 160 160s160-71.634 160-160zM138.667 714.667c0-58.91 47.756-106.667 106.667-106.667s106.667 47.756 106.667 106.667c0 58.91-47.756 106.667-106.667 106.667s-106.667-47.756-106.667-106.667zM565.333 554.667h26.667c54.178 0 98.923-40.393 105.762-92.702l165.909 73.738c35.268 15.675 74.995-10.144 74.995-48.736v-397.935c0-38.592-39.727-64.41-74.995-48.734l-165.909 73.737c-6.839-52.309-51.584-92.702-105.762-92.702h-400c-58.91 0-106.667 47.757-106.667 106.667v320c0 58.91 47.756 106.667 106.667 106.667h373.333zM885.333 89.033v397.935l-186.667-82.965v-232.004l186.667-82.965zM138.667 448v-320c0-29.457 23.878-53.333 53.333-53.333h400c29.457 0 53.333 23.876 53.333 53.333v320c0 29.457-23.876 53.333-53.333 53.333h-400c-29.455 0-53.333-23.876-53.333-53.333zM565.333 554.667c88.367 0 160 71.634 160 160s-71.633 160-160 160c-88.367 0-160-71.634-160-160s71.633-160 160-160zM458.667 714.667c0 58.91 47.757 106.667 106.667 106.667s106.667-47.756 106.667-106.667c0-58.91-47.757-106.667-106.667-106.667s-106.667 47.756-106.667 106.667z" />
<glyph unicode="&#xe934;" glyph-name="maris-whatsapp" d="M840.61 780.849c-87.646 88.090-204.506 136.485-328.947 136.485-256.241 0-464.982-208.741-465.205-464.986 0-82.069 21.409-161.907 61.998-232.602l-65.789-241.079 246.653 64.674c68.019-37.022 144.515-56.644 222.343-56.644h0.226c256.243 0 464.981 208.738 465.203 465.207-0.222 124.218-48.614 241.077-136.482 328.945zM511.663 65.421c-69.577 0-137.598 18.731-196.919 53.969l-14.050 8.474-146.297-38.357 39.027 142.729-9.143 14.72c-38.804 61.551-59.098 132.693-59.098 205.619 0 212.753 173.504 386.258 386.707 386.258 103.253 0 200.265-40.366 273.412-113.291 72.926-73.149 113.071-170.16 113.071-273.415-0.226-213.423-173.73-386.705-386.709-386.705zM723.75 354.893c-11.597 5.798-68.689 33.899-79.394 37.909-10.705 3.793-18.509 5.798-26.091-5.798-7.804-11.597-30.106-37.909-36.796-45.491-6.694-7.808-13.606-8.7-25.203-2.901s-49.062 18.065-93.44 57.762c-34.569 30.775-57.763 68.911-64.676 80.508-6.69 11.597-0.669 17.839 5.129 23.637 5.129 5.133 11.597 13.606 17.395 20.297s7.805 11.597 11.598 19.401c3.789 7.805 2.005 14.496-0.892 20.294-2.901 5.798-26.094 63.113-35.907 86.307-9.367 22.747-18.956 19.625-26.092 19.848-6.691 0.446-14.496 0.446-22.301 0.446s-20.294-2.899-30.999-14.496c-10.705-11.597-40.588-39.697-40.588-97.011s41.704-112.4 47.502-120.204c5.798-7.808 81.846-125.111 198.481-175.514 27.657-12.041 49.289-19.179 66.236-24.529 27.878-8.922 53.077-7.586 73.148-4.685 22.302 3.345 68.689 28.1 78.502 55.309 9.587 27.204 9.587 50.398 6.69 55.305-2.901 4.907-10.705 7.808-22.302 13.606z" />
<glyph unicode="&#xe935;" glyph-name="maris-yard" d="M211.576 811.327l83.278-71.981c0.011-0.021 0.022-0.045 0.035-0.073 0.127-0.283 0.264-0.766 0.264-1.396v-670.766h-167.153v670.766c0 0.629 0.137 1.113 0.264 1.396 0.013 0.028 0.024 0.052 0.035 0.073l83.278 71.981zM774.562 863.196c22.067 19.072 53.658 19.072 75.721 0l87.492-75.623c14.059-12.153 22.225-30.41 22.225-49.696v-670.766c0-35.345-26.901-64-60.083-64h-174.985c-5.798 0-11.409 0.875-16.713 2.509-25.054 7.71-43.371 32.32-43.371 61.491v670.766c0 19.286 8.162 37.544 22.221 49.696l87.492 75.623zM616.205 5.619c-5.303-1.634-10.914-2.509-16.713-2.509h-174.984c-5.8 0-11.407 0.875-16.713 2.509-25.052 7.71-43.371 32.32-43.371 61.491v670.766c0 19.286 8.165 37.544 22.225 49.696l87.494 75.623c22.063 19.072 53.653 19.072 75.716 0l87.492-75.623c14.063-12.153 22.225-30.41 22.225-49.696v-670.766c0-29.171-18.317-53.781-43.371-61.491zM249.437 863.196c-22.065 19.072-53.655 19.072-75.72 0l-87.492-75.623c-14.060-12.153-22.225-30.41-22.225-49.696v-670.766c0-35.345 26.901-64 60.085-64h174.983c5.8 0 11.408 0.875 16.713 2.509 25.052 7.71 43.372 32.32 43.372 61.491v670.766c0 19.286-8.165 37.544-22.225 49.696l-87.492 75.623zM512 811.327l-83.277-71.981c-0.013-0.021-0.021-0.045-0.034-0.073-0.128-0.283-0.265-0.766-0.265-1.396v-670.766h167.151v670.766c0 0.629-0.137 1.113-0.265 1.396-0.013 0.028-0.021 0.052-0.034 0.073l-83.277 71.981zM812.425 811.327l-83.281-71.982c-0.009-0.020-0.021-0.045-0.034-0.073-0.124-0.283-0.26-0.766-0.26-1.396v-670.766h167.151v670.766c0 0.629-0.137 1.113-0.265 1.396-0.013 0.028-0.026 0.052-0.034 0.073l-83.277 71.981zM544 608c0-17.673-14.327-32-32-32s-32 14.327-32 32c0 17.673 14.327 32 32 32s32-14.327 32-32zM851.251 608c0-17.673-14.327-32-32-32s-32 14.327-32 32c0 17.673 14.327 32 32 32s32-14.327 32-32zM236.75 608c0-17.673-14.327-32-32-32s-32 14.327-32 32c0 17.673 14.327 32 32 32s32-14.327 32-32z" />
<glyph unicode="&#xe936;" glyph-name="maris-youtube" d="M515.059 789.333c0.333-0.001 0.691-0.002 1.079-0.003l4.151-0.013c48.213-0.177 292.565-1.949 358.447-19.66 40.388-10.833 72.192-42.756 82.987-83.279 5.943-22.264 10.082-51.855 12.971-82.289l0.559-6.096c0.457-5.086 0.875-10.184 1.263-15.262l0.452-6.084c3.857-53.626 4.305-103.811 4.361-114.789l0.004-1.485c0-0.119 0-0.316 0-0.316v-0.832c0 0 0-0.201 0-0.32l-0.004-1.481c-0.055-11.396-0.538-65.011-4.813-120.879l-0.482-6.101-0.512-6.11c-2.906-33.591-7.262-66.944-13.798-91.435-10.795-40.521-42.598-72.452-82.987-83.277-68.075-18.313-326.724-19.593-362.598-19.682l-2.765-0.004c-0.226 0-0.427-0.004-0.597-0.004h-1.126c0 0-0.26 0-0.431 0l-3.358 0.009c-18.133 0.047-93.158 0.397-171.728 3.093l-10.045 0.358c-1.676 0.060-3.353 0.124-5.030 0.188l-10.057 0.397-10.034 0.427c-65.091 2.854-127.152 7.539-155.701 15.219-40.387 10.825-72.19 42.756-82.985 83.277-6.54 24.491-10.899 57.843-13.805 91.435l-0.513 6.11-0.481 6.101c-4.119 53.837-4.717 105.579-4.804 119.467l-0.011 1.988c0 0.179-0.001 0.346-0.002 0.495v2.287c0 0.149 0.001 0.316 0.002 0.495l0.011 1.988c0.079 12.574 0.576 56.201 3.729 104.314l0.408 6.035c0.070 1.009 0.142 2.020 0.215 3.032l0.451 6.084c0.389 5.079 0.809 10.176 1.262 15.262l0.561 6.096c2.888 30.434 7.031 60.025 12.976 82.289 10.794 40.523 42.597 72.447 82.985 83.279 28.549 7.675 90.61 12.357 155.701 15.213l10.034 0.425 10.057 0.397c1.677 0.064 3.353 0.127 5.030 0.189l10.045 0.357c73.555 2.525 144.003 2.993 167.572 3.079l4.156 0.013c0.384 0.001 0.747 0.002 1.079 0.003h6.118zM418.135 600.943v-282.607l243.864 141.295-243.864 141.312z" />
</font>
</defs>
</svg>
